Twice heart shaker flac

05. Merry & Happy 03. 11 Dec 2017 TWICE (트와이스) – Merry & Happy [FLAC + MP3 320 / WEB] [2017. 24 7 10. Cheap Trick - Mighty Wings (From "Top Gun" Original Soundtrack) 42. Girl ~ヨコハマタイヤBluEarth CMソング~ M4. Miguel) Paul Damixie - Get Lost Matt Nash - Know My Love Paramore - Hard Times DNCE ft. Twice - Merry & Happy (Repackage Album) - Heart Shaker song album download in MP3 free. torrent 최신영드 토렌트도 토렌트가가 입니다. flac8/30/2018 · Track List: 01. TWICE曲 Heart Shaker 韓国語ラップ部分 [music video] twice – merry & happy monograph (2018. WOW 07. 0M) 트와이스 Twice FLAC 2015. Heart Shaker Jacket Making 02. org [Sheldonsuckz] TWICE - #TWICE2 [FLAC] Adult 13 mins seedpeer. - 02. Primal Scream - Rocks 40. 1 Ceybil Jefferies - Open Your Heart (Extended Remix) 6:48 2 Robert Owens - I'll Be Your Friend (Original Def Mix) 6:50 3 Inner City - Big Fun (Original 12" Mix) 6:59 Recent Posts [MUSIC VIDEO] 松任谷由実 – 宇宙図書館 豪華完全限定盤付属BD (2016. Mambo No. 1M) 110. Runaway Train - Soul Asylum 17. Think Twice - Celine Dion 11. 26/aac/rar)[MP3][Album] TWICE - #TWICE2 [Japanese] (MP3 + iTunes),TWICE,MP3,下载Hash : kjdQQShnuAvKmD7wnnzuTWICE(트와이스) Heart Shaker JACKET BEHIND. 《Haert Shaker》描述了无法控制内心鼓起勇气向对方告白的心迹,TWICE甜美的嗓音加上圣诞气息满满的活泼旋律进一步提升可爱 . Flac. flac" WAVE TRACK 02 AUDIO TITLE "Merry & Happy" REM REPLAYGAIN_TRACK_GAIN -10. Heart Shaker *Title 02. You’re my heart shaker, shaker notchigi shireo You’re my heart shaker, shaker eotteokae. Albums List : 01. admin on Depeche Mode – Sounds Of The Universe LIMITED EDITION BOXSET 3CD (FLAC) (2009) (Synthpop) Chakra Meditation Music-Heart Of Reiki : Music 0 [Smooth Jazz, Vocal Jazz] Michael Franks - The Music In My Head 2018 FLAC (Jamal The Moroccan) Music : 325 MB Hāto-gata no akai botan (heart heart) Gomen chotto uso ka mo "ī ne" Kotoba dake ja tarinai yo ne De mo sukinerenai kurai Chikoku shichatte mo ī ka mo Ī ne me likey Me likey, likey, likey Me likey, likey, likey Doki doki doki (heart heart) Me likey Me likey, likey, likey Me likey, likey, likey Doki doki doki (heart heart) Iki fuggutto jippā ----- TẤT CẢ BÀI HÁT CÓ TRONG VIDEO: INTRO: CLC - Hobgoblin BLACKPINK - As If It's Your Last BTS - MIC Drop (Steve Aoki Remix) TWICE - Heart Shaker WINNER - Really Really BLACKPINK - So Hot (THEBLACKLABEL Remix) EXO - Monster BIGBANG - Loser GIRLS' GENERATION - All Night GOT7 - You Are RED VELVET - Red Flavor WANNA ONE - Beautiful EXID 034 TWICE (트와이스) - Heart Shaker. Twice là nghệ sĩ Hàn Quốc đầu tiên tham gia sự kiện này trong sáu năm qua và là nhóm nhạc Kpop thứ tư sau TVXQ, Kara và Girls 'Generation. gl/DKyKZf The 1st Album : Repackage "Merry & Happy" Spotify TWICE – #TWICE2 Released: 2019 Genre: Pop Bitrate: FLAC & MP3 320 KBPS. Twice - #TWICE2 (FLAC 16 Bits). 2. 다시 해줘 3. -「#TWICE」Jacket Shooting Making Movie 「TT -Japanese ver. 날 바라바라봐Torrent Trackers hash 7904038244f8f0b5cb677363837b587d1263799f. 13. m. Heart Shaker -Japanese ver. Douglas collapsed during a recording session with Ry Cooder. Flaming Heart 05. 11 Merry & Happy 10 날 바라바라봐. FFW 08. LIKEY 04. Burna Boy) 6 Disaster (feat. ask. 01. Kula Shaker - Hush 41. Paying supporters also get Twice (25) – Merry & Happy. zhongzidi. 토렌트킴 보다 빠르게, 토렌트왈 토렌트 음원 06월 27일 댄스 Top50 [FLAC] torrent种子搜(www. biceps that were twice this size, always running on my time, (being) cool with Genres: Hip-Hop/Rap, Music Released: 8 Mar 2019 Tracklist: 1 Psycho 2 Streatham 3 Black 4 Purple Heart 5 Location (feat. LIKEY -Japanese ver. 1K likes. The Christmas-inspired album was released on December 11, 2017. Yes - 1991 - Owner Of A Lonely Heart FLAC - "Owner of a Lonely Heart" is a song by the progressive rock band Yes. -03. DING DONG 09. Member Selfcams DOWNLOAD From : Rapidgator, Uploaded, Katfile, Mexashare, … Kami adalah pecinta Musik yang ingin berbagi semua lagu yang kami miliki secara gratis. cc TWICE-1st-Album-Repackage-Merry- -Happy Other 6 hours torrentdownload. 11 Merry & Happy 12 Love Line. What is Love? Heart Shaker -Japanese ver. Miss サマータイム 12. ROLLIN` 12. 트와이스 Twice FLAC, 2017. 6M) 트와이스 Twice FLAC 2017. Rap) The Teskey Brothers – Half Mile Harvest (FLAC) (2018) (Soul) Recent Comments. Wap Tải nhạc miễn phí chất lượng cao số 1 tại Việt Nam ở tất cả mọi thể loại, bạn có thể nghe thử trước khi tải nhạc về máy. 19 Peak Picktorrent: twice 트와이스 signal - Free Search and Download Torrents at search engine. 000000 INDEX 01 00:00:00 FILE "02 Merry & Happy. 폴킴 - 있잖아. 8/30/2018 · Track List: 01. 10. ) TWICE What is Love (Japanese Ver. . flac…TWICE - #TWICE2 Released: 2019 Genre: Pop Bitrate: FLAC & MP3 320 KBPS Tracklist: 01. 24/7 10. Midnight Flyer 6. com)磁力搜索是一个专业提供06월 27일 댄스 Top50 [FLAC]磁力链接搜索和下载的网站,索引了上千万磁力链接的搜索引擎,全球资源最丰富的06월 27일 댄스 Top50 [FLAC]磁力链接搜索下载网站和垂直搜索引擎,被誉为磁力链接搜索神器。Download lagu Twice What Is Love Flac (7. 1M) 110. - 04. 토렌트킴 보다 빠르게, 06월 27일 댄스 Top50 [FLAC] Bee토렌트 국내음악 토렌트,국내음악토렌트,Bee토렌트,토렌트,토렌트다운,토렌트공유,torrent,한국대표토렌트사이트 Bee토렌트 24시간 동안 열지 않기 닫기twiceのデビューベストにして最強アイテム『#twice』の第二弾『#twice 2』のリリース! 韓国でリリースした「LIKEY」から最新アルバムのリード曲「YES or YES」のオリジナルと日本語バージョンを収 …트와이스 Twice FLAC 2017. 00 FILE "01 Heart Shaker. Tải nhạc Heart Shaker miễn phí. Tracklist: 01. 12. Dance The Night Away -Japanese ver. いつまでも変わらぬ愛を / Itsumade mo Kawaranu Ai wo 3. 최신 오피 정보는 남자클럽에서!토토정보 공유는 토토보안관에서! 로그인; 회원가입 음원(MP3/AAC/FLAC)TWICE 1st Album Repackage Merry & Happy 4 torrent download locations monova. php?t=5517830Filename D:\EAC Rips\TWICE - BDZ [FLAC]\03 - Candy Pop. MISSING U 06. 0b3" PERFORMER "Various" TITLE "Pure 90s CD2" FILE "Various Artists - Pure 90s CD2. Merry & Happy Twice's 2017 new Album 'Merry & Happy' is presently accessible for free download in mp3 320kbps 토렌트, 시드다운로드, 오토렌트, 최신영화, 최신드라마, 다운로드 정보 사이트 Filename G:\TWICE - THE STORY BEGINS (FLAC)\05 - Candy Boy. inFo là wap nghe nhạc và Tải nhạc miễn phí dễ dàng về điện thoại và máy tính. 최신 풀싸롱 정보는 남자클럽에서!먹튀정보 확인은 토토보안관에서! (MP3/AAC/FLAC) 애니메이션 TWICE_트와이스_Heart_Shaker_JACKET_BEHIND. Download Music, TV Shows, Movies, Anime, Software and more. mp3 | 7. Wow 07. What is Love? Mix - Twice - Heart Shaker (DJ FLAKO Remix) YouTube TWICE (트와이스) - Heart Shaker | Souls Remix - Duration: 3:02. The Cats 5. 최신 풀싸롱 정보는 남자클럽 에서! Please disable your adblock and script blockers to view this page Hash : 80yfFGbWgHkOlXt2WUt5트와이스 TWICE Heart Shaker. 최신 오피 정보는 남자클럽 에서! 01. Big Brother & The Holding Company - Piece of My Heart 37. 거북이 05. -韓國時間晚上9時,〈Heart Shaker〉佔據全部音源網站的實時榜一位 。截至2018年1月13日,於《M! Countdown》取得〈Heart Shaker〉首個一位後,總計累積九座冠軍 。 12月22日,JYP娛樂宣布TWICE將於2018年2月7日攜第二張日本單曲《Candy Pop》回歸並在日本進行宣傳活動 。ジャニーズWESTのWESTV!無料発売日情報。WESTV! ジャニーズWEST mp3、WESTV! ジャニーズWEST flac、WESTV! ジャニーズWEST zip。WESTV! ジャニーズWEST dl、下载。WESTV! ジャニーズWESTの発売日情報はAllJpopZipで。あなたはおそらくそれも好きでしょう : [album] twice – #twice2 [flac + mp3] [single] 夜の本気ダンス – take my hand (2017. Member Selfcams. 9 M. This does not mean the torrent is dead. Also, you can play quality at 32kbps, 128kbps You are listening to the song Heart Shaker (Japanese Version) by Twice. k2nblog. 72 dB REM REPLAYGAIN_TRACK_PEAK 1. 27 MB TWICE - 올해 제일 잘한 일(Live). 9 Recent Posts [雑誌] COMIC 失楽天 2019年04月号 [雑誌] アクション ピザッツ DX 2019年03月号 [雑誌] G-ワークス 2019年05月号 [G-Works 2019-05] Mix - Twice - Heart Shaker (DJ FLAKO Remix) YouTube TWICE (트와이스) - Heart Shaker | Souls Remix - Duration: 3:02. 03:15. Barry Manilow - I Write The Songs (3:55) 06. 최신 오피 정보는 남자클럽에서!먹튀없는 토토 찾을때는 토토보안관에서! TWICE “Heart Shaker” Choreography V LIVE Cut. 거북이 収録内容01. Missing U 06. 9 % Test CRC CB61D543 Copy CRC CB61D543 Track not present in AccurateRip database Copy OK Track 6 Filename G:\TWICE - THE STORY BEGINS (FLAC)\06 - Like a Fool. TWICE曲 シングル全曲韓国語ラップ練習用 それぞれ動画リピート×3回で練習 (ダヒョン&チェヨンをひたすら見たい人にも♪) TWICE曲 Merry & Happy 韓国語ラップ部分 動画リピートで練習. 碧いうさぎ / Aoi Usagi 6. The Shaker 5. 0 % Extraction speed 2. 2 MB) dan Streaming Kumpulan Lagu Twice What Is Love Flac (7. ch TWICE-1st-Album-Repackage-Merry--Happy Other 16 days토렌트왈 토렌트 음원 06월 27일 댄스 Top50 [FLAC] torrent3/5/2019 · Post by @kpoopeach. The highest quality of audio that you can download is flac. 11. flac 25 MB; 02. com helps you download free FLAC, M4A, Mp3 songs Download MP3 Download FLAC. Pre-gap length 0:00:02. Create an Account 発売日:2019/03/06 収録時間:34分 アーティスト:TWICE 盤種:アルバム シリーズ:- メーカー:ソニー・ミュージック ジャンル:J-POP 品番:cd_338wpcl13020s 01:LIKEY-Japanese ver. A Ghosts Broken Heart 6. “Future Electro Pop” 댄스 곡으로서 데뷔 때부터 함께 해온 블랙아이드필승 프로듀서가 “TWICE”만을 위해 야심 차게 만든 히든 트랙이다. Nghe online bài hát Heart Shaker do ca sĩ Twice thể hiện. 5 Malcolm Martineau (piano) This was a lesson the young Francis Poulenc took to heart and observed throughout his career; and nowhere Twice (트와이스)-Heart Shaker (Japanese Version) Color Coded Lyrics (Japanese/Rom/Eng), 3:08, So Once, March 05, 2019, , Zona Hits, romewillburn. flac (49. wav Pre-gap length 0:00:01. flac(25. com Zona Hits Music Media Present ™ Heart Shaker by TWICE easy piano letter notes for beginners, suitable to play on Piano, Keyboard, Flute, Guitar, Cello, Violin, Clarinet, Trumpet, Saxophone, Viola and any other similar instruments you need easy letters notes for. org TWICE 1st Album Repackage Merry & Happy Other 1 hour torrentdownloads. New Songs. 夢のむこうで 13. org TWICE 1st Album Repackage Merry & Happy Other 1 hour Heart Shaker. The three remaining immunogenic proteins, peb1a, flaC and pal, cannot be distinguished in western blot analysis as well as all the other proteins. Dec - Super Junior ~ PLAY Repackage. 72 dB REM REPLAYGAIN_TRACK_PEAK 1. Heart Shaker Jacket Making02. Includes high-quality download in MP3, FLAC and more. torrent 토렌트 정보 krmv音乐网诚意招收大量版主 音乐资源版块采用论坛币购买+回复方式获取下载地址 国外或者香港 澳门 台湾的会员 请用中国内地的邮箱进行注册[Single] TWICE – Candy Pop [MP3 / RAR] admin January 11, 2018 single Comments Off on [Single] TWICE – Candy Pop [MP3 / RAR] 834 Views Report Broken Links Issue: *180214 가온차트뮤직어워드 TWICE HEART Shaker 나연 직캠 by S2나연이랑. 트와이스 Twice FLAC, 2018. Nicki Minaj - Kissing Strangers TCTS feat. 17 dB REM REPLAYGAIN_TRACK_PEAK 1. - Road Scholars "Please retry" They did a great job spicing up the long worn out "Morning Dance" and "Shaker Song". Download WordPress Themes FreePremium WordPress 発売日:2019/03/06 収録時間:34分 アーティスト:TWICE 盤種:アルバム シリーズ:- メーカー:ソニー・ミュージック ジャンル:J-POP 品番:cd_338wpcl13019s 01:LIKEY-Japanese ver. ê±°ë¶ ì ´ (Turtle) 05. 09 미니 Summer Nights, 03 Shot Thru The Heart. -02. Самые новые фильмы, музыка, игры, софт. ch TWICE-1st-Album-Repackage-Merry--Happy Other 16 days欢乐圣诞聆听twice的《likey》[flac格式] peijunyu 2017-12-19 日韩无损音乐 ℃ TWICE于12月11日发行后续专辑《Merry & Happy》,《Merry & Happy》中收录主打歌《HEART SHAKER》,以及由朴轸泳作词的专辑同名歌曲《Merry & Happy》两首新作。TWICE – Merry & Happy(Repackage)[FLAC/MP3] 2017-12-11 koyimusic 阅读(1714) 评论(3) 赞(3) TWICE于12月11日发行《Merry & Happy》,《Merry & Happy》中收录主打歌《HEART SHAKER》,以及由朴轸泳作词的专辑同名歌曲《Merry & Happy》两首新作。轻快又具有中毒性的旋律,相当适合在欢乐[bdmv+bdrip] ちいさな英雄-カニとタマゴと透明人間-Hash : 9p7qubrybdxqZrosQ81JTWICE(트와이스) Heart Shaker 응원법 from TWICE. It normally takes about 10~21business days to reach. Member Selfcams //alfafile. inFo là wap nghe nhạc và Tải nhạc miễn phí dễ dàng về điện thoại và máy tính. )" Track Info. Precious Summer 5. TWICE - 올해 제일 잘한 일(Live). The highest quality of audio that you can download is flac. Heart Shaker TWICE (트와이스); Merry & Happy; 장르 [8BIT] TWICE - Heart Shaker by Twice, released 11 December 2017. Old Train 8. torrent토렌트킴 보다 빠르게, (MP3/AAC/FLAC) 애니메이션 TWICE “Heart Shaker” Choreography V LIVE Cut. Release Date February 8, 2018. Paul Young - Wherever I Lay My Hat (That's My Home) (4:12) 08. 0M) 108. TWICEのデビューベストにして最強アイテム「#TWICE」の第二弾「#TWICE 2」のリリース! 韓国でリリースしたLIKEYから最新アルバムのリード曲「YES or YES」のオリジナルと日本語バージョンを収録! 収録内容 01. org. 09 미니 Summer Nights, 03 Shot Thru The Heart. According to those who were there, Heart was not on the billing for the show. 최신 풀싸롱 정보는 남자클럽 에서! 韓國時間晚上9時,〈Heart Shaker〉佔據全部音源網站的實時榜一位 。截至2018年1月13日,於《M! Countdown》取得〈Heart Shaker〉首個一位後,總計累積九座冠軍 。 12月22日,JYP娛樂宣布TWICE將於2018年2月7日攜第二張日本單曲《Candy Pop》回歸並在日本進行宣傳活動 。 部分歌手名称及MV名称翻译不准确的请PM我及时纠正 下载地址回复可见! Download URL Reply Posts To View! 如不想回复可 开通VIP会员获取百度网盘下载地址 Shizuka Kudo - Album Collection 1988-2008 CD FLAC -- DOWNLOAD (Mirror #1) [FLAC/MP3] 지니 (Geine) 09월 13일 실시간 TOP 200 [02시] 용량: 1. org/forum/viewtopic. OOH-AHH하게 2. Only two of the investigated immunogenic proteins (cjaA, and hisJ) show strong visible bands in western blot matching the expected sizes. comHash : 9p7qubrybdxqZrosQ81JTWICE(트와이스) Heart Shaker 응원법 from TWICE. 20 Genre: Ballad, Dance TRACK LIST: 1. 94 MB K-Pop. 翼を広げて … TWICE – Merry & Happy(Repackage)[FLAC/MP3] 2017-12-11 koyimusic 阅读(1663) 评论(3) 赞(3) TWICE于12月11日发行《Merry & Happy》,《Merry & Happy》中收录主打歌《HEART SHAKER》,以及由朴轸泳作词的专辑同名歌曲《Merry & Happy》两首新作。轻快又具有中毒性的旋律,相当适合在欢乐 TWICE 1st Album Repackage Merry & Happy 4 torrent download locations monova. 15 04집 미니 Signal 24Bit 96kHz, 05 Eye Eye Eyes. 000000 INDEX 01 00:00:00 FILE "03 LIKEY. - 05. com)种子帝(www. 4M) 트와이스 Twice FLAC 2017. 3. flac" WAVE TRACK 01 AUDIO TITLE "Heart Shaker" REM REPLAYGAIN_TRACK_GAIN -12. Dec - Twice ~ Heart Shaker. 19 Peak level 100. wav Pre-gap length 0:00:01. A Star Is Born Soundtrack KISS Hide Your Heart LIVE KISS Kruise III 2013 Mp3 Lagu Raya Terbaik Koleksi REM GENRE Pop REM DATE 2012 REM DISCID 0B0FC211 REM COMMENT "ExactAudioCopy v1. Search through our movies, television, games, music, software and anime verified torrents to find your perfect torrent. Merry & Happy MV Making04. 잘자요 굿나잇 ++Digital Booklet – Merry & Happy Download Album File: TWICE – Merry & Happy [www. 널 내게 담아 15. Play Download Ringtone. Un-Break My Heart - Toni Braxton 12. 토렌트 08월 12일 댄스 Top50 [FLAC] - 토렌트왈토렌트 08월 21일 장르종합 Top100 [FLAC] - 토렌트왈Recent Posts [雑誌] COMIC 失楽天 2019年04月号 [雑誌] アクション ピザッツ DX 2019年03月号 [雑誌] G-ワークス 2019年05月号 [G-Works 2019-05]Heart Shaker -Japanese ver. net/file/8Awoa/4577660089. 西洋流行音樂 席琳狄翁Céline Dion - Ashes-死侍2電影配樂 TWICE曲 韓国語ラップ部分の 練習用動画. I Wonder Why - Curtis Stigers 14. 15, 잘자요 굿나잇 Dec 9, 2017 TWICE(트와이스) "Heart Shaker"+"Merry & Happy" 1min Player The 1st Album : Repackage "Merry & Happy" iTunes & Apple Music  TWICE "Heart Shaker" M/V - YouTube www. -02:Heart Shaker-Japanese ver. 38M) 002 멜로망스 - 선물. [Mirrored] TWICE(트와이스)_TT Choreography(티티 거울모드 안무영상)_1theK Dance Cover Contest Make Me Feed - Use RSS feeds technology to keep you informed about news relative hashtags that you use on the web, in this regard, all the site content are automatically inserted by reading third part feed. com is a fast BitTorrent search engine that only lists verified torrents. J Hus) Claimed by the Sea EP by French for rabbits, released 03 January 2012 1. 1. - 03. 180214 가온차트 K-POP 어워드 트와이스 Heart Shaker 지효 직캠 (TWICE JIHYO Focus)_HD. Like a Fool +Digital Booklet – THE STORY BEGINS MP3-320K . "Heart Shaker" of TWICE The 1st Album: Repackage <Merry & Happy> Jump to. [Single] TWICE – #TWICE2 [MP3+Flac] Posted by jpn1 토렌트 08월 12일 댄스 Top50 [FLAC] - 토렌트왈 Update (11-Sept): Sign ups were broken for the past few days. 180214 트와이스 '하트쉐이커' 사나 직캠 TWICE Sana fancam - Heart Shaker (가온차트 뮤직어워즈) by Spinel MKV : OtherDownload lagu Twice What Is Love Flac (7. 토렌트왈 토렌트 음원 08월 21일 장르종합 Top100 [FLAC] torrent Disc 1: M1. 43 MB You may be interested 180214 가온차트 어워드 트와이스 Heart Shaker 지효 직캠 TWICE JIHYO Focus 10. It's now fixed. flac" WAVE TRACK 01 AUDIOYou are listening to the song Likey (Japanese Version) by Twice. Upcoming Major Releases. torrent Hash : lV1G9xayctbTkm3sUGSw토렌트킴 보다 (MP3/AAC/FLAC Artists, FLAC TWICE – Merry & Happy TWICE – Merry & Happy. 君がいたから / Kimi ga Ita kara 8. Archives 토렌트 08월 21일 장르종합 Top100 [FLAC] - 토렌트왈Recent Posts [雑誌] COMIC 失楽天 2019年04月号 [雑誌] アクション ピザッツ DX 2019年03月号 [雑誌] G-ワークス 2019年05月号 [G-Works 2019-05]107. 5 ----- TẤT CẢ BÀI HÁT CÓ TRONG VIDEO: INTRO: CLC - Hobgoblin BLACKPINK - As If It's Your Last BTS - MIC Drop (Steve Aoki Remix) TWICE - Heart Shaker WINNER - Really Really BLACKPINK - So Hot (THEBLACKLABEL Remix) EXO - Monster BIGBANG - Loser GIRLS' GENERATION - All Night GOT7 - You Are RED VELVET - Red Flavor WANNA ONE - Beautiful EXID Abstract Hip-Hop Album Sampler Alternative Hip-Hop Break Beats Cassette CD Single Chicano Rap Chopped And Screwed Christian Hip-Hop Cloud Rap Comedy Rap Compilation Country Rap Crunk Demo East Coast Hip-Hop Electro Female Hip-Hop FLAC G-Funk Gangsta Rap Grime Hip House Horrorcore Instrumental Hip-Hop Interview Jazz-Hop Latin Hip-Hop Live Miami Today's Top Music Albums in United States by Mp3songfree . Com是一个免费提供无损音乐下载的网站,专注于Ape音乐、Flac音乐以及Wav等各类高品质无损音乐的免费下载,致力于做国内最好的无损音乐下载网站 TWICE - Heart Shaker. cohttps://jenie. -05. 08M. - Items will be sent by Korea Standard International shipping (Air Mail) which doesn't have a tracking number. 04. 世界が終るまでは・・・ / Sekai ga Owaru made wa 7. 0M) 108. babocheoreom an gidaryeo naega malhallae joahandago niga mame deundago haru jongil bogo shipdago saranghandago banhaebeoryeottago. ㆍ192. gl/jVLYYY iTunes & Apple Music https://goo. co/twice-twice2-flac-mp3TWICE – #TWICE2 Released: 2019 Genre: Pop Bitrate: FLAC & MP3 320 KBPS. - 02. 3M “Future Electro Pop” 댄스 곡으로서 데뷔 때부터 함께 해온 블랙아이드필승 프로듀서가 “TWICE”만을 위해 TWICE(트와이스) Heart Shaker JACKET BEHIND. flac[album]#twice 2 – twice[flac + mp3] ABOUT Amazon、オリコン、TSUTAYAレンタル、LINEミュージック、Spotify、AppleMusic、etcの最新ランキング情報を元にほぼ毎週、独自に更新しています。Hash : dZPWvYDvThay765HifBd[MV] TWICE(트와이스) - Heart Shaker. Two's Company 7. Twice 1 year ago. Billy Ocean - Suddenly (3:52) 07. Log in or create an account today so you never miss a new release. flac (48. Iceman) to stream in hi-fi, or to download in True CD Quality on Qobuz. 26/aac/rar) 토렌트왈 토렌트 음원 08월 12일 댄스 Top50 [FLAC] torrent twiceのデビューベストにして最強アイテム『#twice』の第二弾『#twice 2』のリリース! 韓国でリリースした「LIKEY」から最新アルバムのリード曲「YES or YES」のオリジナルと日本語バージョンを収録!/p> TWICE(트와이스) Heart Shaker JACKET BEHIND. Also, you can play quality at 32kbps, 128kbps TWICE(트와이스) "Heart Shaker" M/V The 5th Mini Album "What is Love?" Spotify https://goo. You Only Live Twice (HQ) by DocRewdySoul. チョット / Chotto 4. Heart Shaker TWICE (트와이스); Merry & Happy; 장르 Com是一个免费提供无损音乐下载的网站,专注于Ape音乐、Flac音乐以及Wav等各类 TWICE - Heart Shaker. Shizuka Kudo - Album Collection 1988-2008 CD FLAC -- DOWNLOAD (Mirror #1) 01. 2M) 109. mp4 [磁力链接] 视频 创建时间: 2018-08-14 文件大小: 56. 17 dB REM REPLAYGAIN_TRACK_PEAK 1. Also, you can play You are listening to the song Heart Shaker (Japanese Version) by Twice, in album Twice2 (Regular). The highest quality of audio that you can download is 320kbps . Candy Boy 6. Com是一个免费提供无损音乐下载的网站,专注于Ape音乐、Flac音乐以及Wav等各类高品质无损音乐的免费下载,致力于做国内最好的无损音乐下载网站01. Also, you 12/9/2017 · TWICE(트와이스) "Heart Shaker"+"Merry & Happy" 1min Player The 1st Album : Repackage "Merry & Happy" iTunes & Apple Music https://itunes. Album Tracklist 01、LIKEY -Japanese ver. Douglas, whose original name was Steven Kreisman, worked with Mr. Comments Search Song. You Can Download [beat Saber] Twice(트와이스) - Heart Shaker (expert) Mp3 for Free , if you like it TWICE now has five music videos with 200 million views! On July 11 at about 8:38 p. Lime House Blues 9. 최신 안마 정보는 남자클럽에서!먹튀없는 토토 찾을때는 토토보안관에서! 음원(MP3/AAC/FLAC)TWICE 1st Album Repackage Merry & Happy 4 torrent download locations monova. May [洋楽][Album] Britney Spears – 20th Anniversary Burning Dancefloor [MP3+Flac] [Album] BILLIE IDLE – NOT IDOL [MP3+Flac] [洋楽][Album] Various Artists – Chimes of Freedom The Songs of Bob Dylan [MP3+Flac](2012) [洋楽][Album] Various Artists – Top 40 carhits The Ultimate Top 40 Collection [MP3+Flac] Hash : 9p7qubrybdxqZrosQ81JTWICE(트와이스) Heart Shaker 응원법 from TWICE. Download Twice - twicetagram (Full Album) - Likey MP3 at DLKpop. torrent 최신다큐 토렌트도 토렌트가가 입니다. Lonesome, On'ry and Mean 4. You are listening to the song Heart Shaker by Twice. torrent. cue), lossless Fronting the newly named Shakin' Stevens and the and then twice-extended two-year run Shaky It was later revealed that Stevens had suffered a heart attack My Beatport lets you follow your favorite DJs and labels so you can find out when they release new tracks. Lời bài hát Heart Shaker天野めぐみはスキだらけ 第01-14巻 Title : [ねこぐち] 天野めぐみはスキだらけ 第01-14巻 Associated Names (一般コミック)[ねこぐち] 天野めぐみはスキだらけ 天野めぐみはスキだらけ!3/6/2019 · [流行pop] TWICE - YES or YES FLAC Hi-Res 'LIKEY', 'Heart Shaker', ‘What is Love?’, ‘Dance The Night Away’까지 모든 활동곡을 히트시키며 원톱 걸그룹으로 자리매김 중인 TWICE가 이번에는 신곡 'YES or YES'로 팬들에게 사랑을 고백할 준비를 마쳤다. to lossless FLAC versions of the album Dua Lipa - Lost In Your Light (feat. com)磁力搜索是一个专业提供-TWICE磁力链接搜索和下载的网站,索引了上千万磁力链接的搜索引擎,全球资源最丰富的-TWICE磁力链接搜索下载网站和垂直搜索引擎,被誉为磁力链接搜索神器。 Dream Twice - Enta (2018) FLAC New 08월 21일 장르종합 Top100 [FLAC] Torrent file details Name 08월 21일 장르종합 Top100 [FLAC]. TWICE (트와이스) - 'HEART SHAKER' Lyrics [Color Coded_Han_Rom_Eng] Planetlagu Stafaband: Download Video Picktorrent: 트와이스 flac - Free Search and Download Torrents at search engine. comwww. apple. 咲き誇れ愛しさよ / Saki Hokore Itoshisa yo 9. Truth 5. ) TWICE TaiBaiHat. Hash : dZPWvYDvThay765HifBd[MV] TWICE(트와이스) - Heart Shaker. -02. Flac TWICE 1st Album Repackage Merry & Happy 4 torrent download locations monova. com/MusicShow. torrent 최신드라마 토렌트도 토렌트가가 입니다. mp3(7. 0 M. 최신 오피 정보는 남자클럽에서!먹튀없는 토토 찾을때는 토토보안관에서! 음원(MP3/AAC/FLAC)토렌트왈 토렌트 음원 08월 12일 댄스 Top50 [FLAC] torrent1 week ago jpop Comments Off on [Album] TWICE – #TWICE2 [FLAC + MP3] TWICE – #TWICE2 Released: 2019 Genre: Pop Bitrate: FLAC & MP3 320 KBPS Tracklist: 01. Tải nhạc dạng mp3, m4a, lossless và xem lời bài hát Heart Shaker hoàn toàn miễn phí. Likey (Japanese Version) - Twice; Heart Shaker (Japanese Version) - Twice; What Is Love?12 Dec 2017 TWICE – Merry & Happy (THE 1ST ALBUM REPACKAGE) (FLAC+ ITUNES PLUS AAC TWICE (트와이스) – Merry & Happy 1- Heart Shaker Tags: TWICE TWICE – SIGNAL – EP (FLAC + ITUNES PLUS AAC M4A). Sam 02. torrent최신일드 토렌트도 토렌트가가 입니다. Home » Album » Korean » TWICE » [Full Album] TWICE - TWICEcoaster : LANE 2. What is Love? -Japanese ver. rar - 132. 1 milioaneTWICE_Heart Shaker-无损音乐下载 - ape-flac. EXID I LOVE YOU. 40 Min – Korean and English subtitles are available on both the ISO and MKV Hash : dZPWvYDvThay765HifBd[MV] TWICE(트와이스) - Heart Shaker. rar - 132. flac…Candy Pop | Twice (feat. mp4. 09 미니 Summer Nights, 05 Sweet Talker. ·25M. -04:Dance The Night Away-Japanese ver. グッバイ・アイザック (Double Title Single|2013. eu [Sheldonsuckz] TWICE - #TWICE2 [FLAC] Other Misc 9 hours. 06. gl/DKyKZf The 1st Album : Repackage "Merry & Happy" Spotify You are listening to the song Heart Shaker (3D Remix) by TWICE, . Sections of this page. 최신 오피 정보는 남자클럽에서!토토정보 공유는 토토보안관에서! [FLAC] [멜론 (Melon) 장르별차트] : 08월 12일 댄스 Top50 토렌트다운 08월 21일 장르종합 Top100 [FLAC] - HiDHT. Tìm Bài Hát. あなたと Download/ダウンロード/下载 More from my site[Album] 今井美樹 – Dialogue ~Miki Imai Sings Yuming Classics~ [MP3](2013)[Album] ゆず – WONDERFUL WORLD [MP3](2008)[Album] コブクロ – 5296 [MP3+Flac](2007)[Album] 椎名林檎 – 勝訴 What is Love (Japanese Ver. Spector as one of "Phil's Regulars," a group that included Sonny Bono on percussion, Glen Campbell on guitar and Leon Russell on Words & Music - Joel Boyea When my name came up on your phone Do you remember that pitch that I'd thrown? About seeing you once again When you said yes, I nearly lost control of my brain I remember walking on air, down the stairs, my heart racing I believe in myself and the dreams that I'm chasing All because you and your love let me in The Complete Songs, Vol. Life - Des'ree 13. George Michael's music should be taken very seriously, and also very frivolously -- few songwriters of his era were as capable of writing both heart-wrenching torch ballads speaking to the ada yang punya heart shaker flac ? 16-12-2017 20:39 itu cuma sekarang Jeongyeon♥ sedih banget heart shaker cuma promosi 1 Twice menang terus dgn Heart Shaker ada yang punya heart shaker flac ? 16-12-2017 20:39 itu cuma sekarang Jeongyeon♥ sedih banget heart shaker cuma promosi 1 Twice menang terus dgn Heart Shaker 180214 가온차트 K-POP 어워드 트와이스 Heart Shaker 지효 직캠 (TWICE JIHYO Focus)_HD. 孙燕姿 - 懂事. 07. com/youtube?q=twice+heart+shaker+flac&v=rRzxEiBLQCA Dec 11, 2017 TWICE(트와이스) "Heart Shaker" M/V The 5th Mini Album "What is Love?" Spotify https://goo. com]. me TWICE 1st Album Repackage Merry & Happy Other 5 hours limetorrents. flac (49. 0 plays 2:52 3. twice) on Instagram: “TWICE - Heart Shaker Go check out these 2 guys @LankyBox they post a lot of hilarious kpop videos😂🎵…” Outfits inspired by “Heart Shaker” by TWICE. Like OOH-AHH -Japanese ver. Cancel anytime. What is Love?06월 27일 댄스 Top50 [FLAC] 토렌트소다 강좌페이지,강좌,토렌트강좌,토렌트소다,토렌트,토렌트다운,토렌트공유,torrent,한국대표토렌트사이트 토렌트소다 24시간 동안 열지 않기 닫기[Single] TWICE – #TWICE2 [MP3+Flac] Posted by jpn1 on 03/06/2019 Leave a comment (0) Go to comments. 19 Peak TWICE "Dance The Night Away TWICE "Heart Shaker" TWICE "TT" TWICE "CHEER UP" TWICE "SIGNAL" TWICE "Like OOH-AHH(OOH-AHH하게)" TWICE "KNOCK KNOCK" TWICE「I WANT YOU BACK」 TWICE "Merry & Happy" TWICE「Wake Me Up」 TWICE「Candy Pop」 TWICE「BDZ」 All of hot Twice Song Top Video channel is include in this application. 000000 INDEX 01 00:00:00 FILE "03 LIKEY. Monkey And Snake 09. 180214 트와이스 '하트쉐이커' 사나 직캠 TWICE Sana fancam - Heart Shaker (가온차트 뮤직어워즈) by Spinel MKV : OtherHash : dZPWvYDvThay765HifBd[MV] TWICE(트와이스) - Heart Shaker. 26/aac/rar) Heart Shaker. It is the opening track of their 1983 album 90125. Meat Loaf - Two Out Of Three Ain't Bad (4:47) 05. KST, the girl group’s music video for “Heart Shaker” exceeded 200 million views. thiết bị nghe nhạc của bạn cần phải cài đặt thêm plugin/codec hỗ trợ decode tập tin âm thanh FLAC. twice heart shaker flac mp3 8. [FLAC/MP3] 지니 (Geine) 09월 13일 실시간 TOP 200 [02시] 토렌트다운 [FLAC/MP3] 지니 (Geine) 09월 13일 실시간 TOP 200 [02시] Toggle navigation Lets Dance(렛츠댄스): TWICE(트와이스) _ Heart Shaker. 2, Merry & Happy, 3:13 14, 널 내게 담아 YOU IN MY HEART, 3:30. Lost 06. wav. part2. Claimed by the Sea. -」Music Video Making Movie 「Like OOH-AHH」Music Video 「CHEER UP」Music Video 「TT」Music Video 「KNOCK KNOCK」Music Video 「SIGNAL」Music Video . mp3(9. 힘내! (DON`T GIVE UP) 14. I saw them live twice and was thoroughly Celine Dion - Think Twice (4:50) 02. Heart Shaker MV Making03. flac (48. O. -02、Heart Shaker -Japanese ver. TWICE – #TWICE2 Released: 2019 Genre: Pop Bitrate: FLAC & MP3 320 KBPS. 1 Flac 주옥같은 추억의 카페음악 악단 001 TWICE (트와이스) - Heart Shaker. Bonnie Tyler - Faster Than the Speed of Night 43. 28 Genre: J-Pop Language: Japanese Bit Rate: iTunes Plus AAC M4A Track List: 01. FLAC . He said Mr. YES or YES -Japanese ver. u can choose ur member. - 0210/30/2017 · Unlimited recording storage space. Semua konten untuk tujuan promosi, silakan beli album resmi untuk mendukung Artis. flac (70. ) Lyrics; About Genius Contributor Guidelines Press Advertise Event Space. The Meat Puppets Humbrews Arcata, CA 2017-03-17 St Patricks Day source: SBD/Aud. ch TWICE-1st-Album-Repackage-Merry--Happy Other 16 daysHash : 8AmFlMAVGa36g5cdSDfoTWICE “Heart Shaker” Choreography V LIVE Cut. 初恋 (Double Title SoshiRMyMums - Free K-Pop & J-Pop Lossless Music No posts. 現実は小説より奇なり M6. Accessibility Help. What is Love?TWICE – #TWICE2 Released: 2019 Genre: Pop Bitrate: FLAC & MP3 320 KBPS. -」Music Video Making Movie 「SIGNAL -Japanese ver. KTI FLAC Archives Vault 02 — Old School Classix Ancient Person Of My Heart (Balearic Mix (Radio Edit)) Three 'N One presents Johnny Shaker - Pearl River TWICE; Song info "One In a Million" (2016) 0 người yêu thích . Heart Shaker 02. Lets Dance(렛츠댄스): TWICE(트와이스) _ Heart Shaker. torrent 최신다큐 토렌트도 토렌트가가 입니다. Severed Goddess Hand 07. A Bit of This, a Bit of That. 15 04집 미니 Signal 24Bit 96kHz, 05 Eye Eye Eyes. Tracklist: 01. 180214 트와이스 '하트쉐이커' 사나 직캠 TWICE Sana fancam - Heart Shaker (가온차트 뮤직어워즈) by Spinel MKV : OtherTWICE于12月11日发行后续专辑《Merry & Happy》,《Merry & Happy》中收录主打歌《HEART SHAKER》,以及由朴轸泳作词的专辑同名歌曲《Merry & Happy》两首新作。 上一篇:欢乐圣诞聆听TWICE的《LIKEY》[FLAC格式]토렌트, 시드다운로드, 오토렌트, 최신영화, 최신드라마, 다운로드 정보 사이트2/18/2019 · 'YES or YES'는 첫 번째 스페셜 앨범 ‘TWICEcoaster : LANE 2’ 타이틀곡 'Knock Knock'의 작사가 심은지, 리패키지 앨범 ‘Merry & Happy’ 타이틀곡 ‘Heart Shaker'의 작곡가 David Amber와 Andy Love가 작사, 작곡가로 호흡을 맞춰 타이틀곡의 완성도를 높였다. đặt thêm plugin/codec hỗ trợ decode tập tin âm thanh FLAC. Dionne Warwick - All Heart: 1976-10-10 Boston, MA (FLAC_AUD Master_1 CD) This is a superb++ audience recording of Heart as they were pretty much starting their careers. What isHeart Shaker, TWICE [Intro: All, Chaeyoung, Dahyun] Yeah Yeah Yeah Yeah Yeah Come and be my love Come | Tải download 320 nhạc chờ Heart Shaker,TWICE Lossless 0MB • flac • VIP; repackage album Twicetagram phiên bản Giáng sinh mang tên Merry & Happy với ca khúc chủ đề "Heart Shaker" được phát hành. 42M. rar The Travelin' McCourys's The Abbey Bar Harrisburg, PA 2. In addition to the original track listing, it has two new songs: the first track is titled "Heart Shaker" and the eponymous second track "Merry & Happy" was 감성 AI 음악추천 서비스 지니!, 국내 최초 실시간 TOP 200 차트, FLAC 고음질, 마이스타일 맞춤 추천. [beat Saber] Twice(트와이스) - Heart Shaker (expert) 31. Curtis Stigers - I Wonder Why (4:28) 04. com/album/merry-Autor: jypentertainmentVizualizări: 2. 2 MB) MP3 Terbaru di Goldmp3 dan nikmati, video klip Twice What Is Love Flac mp4, lirik lagu Twice What Is Love Flac full album. BigBang - La-La-La. Hash : QjUsEyzCYvADvXMqaqlg171225 가요대전 Heart Shaker (후반부) + Likey (전체) 사나 (SANA) 직캠. Ding Dong 09. Heart Shaker. 林强 - 向前走. [HQ-FLAC] Heart - Barracuda Mp3. Walk Out in the Rain>Quicksburg Rendezvous 3. 72G TWICE (트와이스) - Heart Shaker. 种子搜(www. You are mine (Be mine) You are mine (Be mine) joahandago malhallae banhaesseunikka: Yeah yeah yeah yeah Come and be my love 토렌트 08월 12일 댄스 Top50 [FLAC] - 토렌트왈 TRACK LIST: 1- Heart Shaker 2- Merry & Happy 3- LIKEY 4- 거북이 5- MISSING U 6- WOW 7- FFW 8- DING DONG 9- 24/7 10- 날 바라바라봐 11- ROLLIN 12- LOVE LINE Home Featured [Album] TWICE – TWICEcoaster : LANE 2 (MP3 + iTunes Plus AAC M4A) Featured Korea [Album] TWICE – TWICEcoaster : LANE 2 (MP3 + iTunes Plus AAC M4A) FILE "01 Heart Shaker. com. moumoon – NEWMOON [FLAC + MP3] TWICE – #TWICE2 [FLAC + MP3] SawanoHiroyuki[nZk] – REMEMBER [MP3] KANA-BOON – Haguruma [MP3] milet – inside you EP [FLAC + MP3] Recent Comments. What is Free download Twice - Merry & Happy (Repackage Album) - Heart Shaker MP3 320 kbps on DLKpop. 최신 오피 정보는 남자클럽에서 If you're wondering where to buy ice machines, we have a large selection of ice machines for sale at the lowest prices. 000000 INDEX 01 00:00:00 FILE "02 Merry & Happy. zhongziso. torrent 최신영드 토렌트도 토렌트가가 입니다. - Recent Posts. -03:What is Love?-Japanese ver. Plateau 08. MASTERLIST. TWICE; CANDY POP (Inst. 2016 Source: Busman Bsc2(hypers)>PFA>Tascam Dr-60 Location : at SBD/jroc/POS @8ft Set 1 1. You are mine (Be mine) You are mine (Be mine) joahandago malhallae banhaesseunikka: Yeah yeah yeah yeah Come and be my love You are listening to the song Heart Shaker by Twice, in album Merry & Happy (Repackage). - 05. aspx?i=24239搜无损网Ape-Flac. The Stone Roses - She Bangs the Drums 38. i am Souls 63,915 views TWICE - #TWICE2 Released: 2019 Genre: Pop Bitrate: FLAC & MP3 320 KBPS Tracklist: 01. 320kps, flac (lossless). i sell the twice heart shaker broadcasting photocard . Thêm vào danh sách yêu thích Đăng lời dịch Luyện David Holmes ~ Gritty Shaker (Richard Fearless Remix) by Barracuda- Heart by soccerbabe2545. 9 % Test CRC CB61D543 Copy CRC CB61D543 Track not present in AccurateRip database Copy OK Track 6 Filename G:\TWICE - THE STORY BEGINS (FLAC)\06 - Like a Fool. 19 Peak level 100. Autor: ZionVizualizări: 56 miiTWICE #TWICE2 RAR FLAC + MP3 Download - jenie. I Live on a Battlefield & Baltimore Johnny 7. - 04. flac (70. 107. ape-flac. 최신 오피 정보는 남자클럽에서!먹튀없는 토토 찾을때는 토토보안관에서! Hash : dZPWvYDvThay765HifBd[MV] TWICE(트와이스) - Heart Shaker. gl/jVLYYY iTunes & Apple Music https://goo. 최신 유흥정보는 …[FLAC] [멜론 (Melon) 장르별차트] : 08월 12일 댄스 Top50 토렌트다운KTV - Twice - Heart Shaker (MC 20171216) 其他 大小: 433. María - Ricky Martin 3. mp3 大小:4. 16 Release) ~読売テレビ・日本テレビ系全国ネットTVアニメ「宇宙兄弟」エンディングテーマ~ M3. 19 Dec 2017 download TWICE Heart Shaker TWICE Heart Shaker FLAC lossless, download TWICE Merry & Happy FLAC lossless, download TWICE Heart 2018년 8월 30일 Heart Shaker *Title 02. 최신 오피 정보는 남자클럽에서!먹튀없는 토토 찾을때는 토토보안관에서! 음원(MP3/AAC/FLAC)韓國時間晚上9時,〈Heart Shaker〉佔據全部音源網站的實時榜一位 。截至2018年1月13日,於《M! Countdown》取得〈Heart Shaker〉首個一位後,總計累積九座冠軍 。 12月22日,JYP娛樂宣布TWICE將於2018年2月7日攜第二張日本單曲《Candy Pop》回歸並在日本進行宣傳活動 。Hash : 8AmFlMAVGa36g5cdSDfoTWICE “Heart Shaker” Choreography V LIVE Cut. Lời bài hát Heart Shaker. ^_^~~ . -04. 20 01집 미니 The Story Begins 06 Like A Fool. Updated: March 3rd, 2018. 59 MB [FLAC] 42. 07. [Sheldonsuckz] TWICE - #TWICE2 [FLAC] 3 torrent download locations nyaa. The group of British producers spent three years perfecting this album which is full to the brim with top-notch collaborations. 23/mp4/rar) (dvdiso) Posted in MUSIC by lovejp On December 26, 2018 収録内容 01. 36. rar TWICE于12月11日发行《Merry & Happy》,《Merry & Happy》中收录主打歌《HEART SHAKER》,以及由朴轸泳作词的专辑同名歌曲《Merry & Happy》两首新作。Free download Twice - Merry & Happy (Repackage Album) - Heart Shaker MP3 320 kbps on DLKpop. Track List: 01. 请登录后下载 [8BIT] TWICE - Heart Shaker by Twice, released 11 December 2017. ITUNES – Thanks to qiuxiangyu1989 . Mr. -04、Dance The Night Away -Japanese ver. What is Love?FILE "01 Heart Shaker. ROLLIN’ 12. Shizuka Kudo - Album Collection 1988-2008 CD FLAC -- DOWNLOAD (Mirror #1)Tải bài hát Heart Shaker ca sĩ TWICE. mp4 56. 날 바라바라봐 11. ·. 方力申 - 别人情歌. Hallelujah - Jeff Buckley 15. Arranged by Merce Lemon and the band Produced by Dylan Hanwright & Merce Lemon at Wormhole Recordings Mixed by Dylan Hanwright Mastered by Terrance Robinson Merce Lemon: vocals (all tracks) guitar (all tracks) Ruby Dunphy: drums (all tracks) Wyatt Thomas: bass (all tracks) vocals (5) Maxwell Reikosky: trumpet (4), vocals (4), shaker (3) Twice, the day 'music station' 9th performance [Sports Chosun com gimjunseok News] bit Weiss has yet to appear on TV Asahi local representative TWICE dome tour tickets sold out within 1 minute of opening general sales Everything That Happens Will Happen Today is the second album made in with its lyrics about the strength of the heart. Learn to play 'Heart Shaker' easy by Twice with guitar chords, lyrics and chord diagrams. 0 % Extraction speed 2. Dez. 9k Likes, 50 Comments - TWICE 트와이스 (@official. 初恋 (Double Title Single|2013. Hash : 2SexeiryU095EKbA7gWK[V앱] 171211 트와이스 [FULL] TWICE Heart Shaker Special V LIVE (1080p,mp4). Marauder 4. ë‚ ë°”ë ¼ë°”ë ¼ë´ (Look At Me)TRACK LIST: 1- Heart Shaker 2- Merry & Happy 3- LIKEY 4- 거북이 5- MISSING U 6- WOW 7- FFW 8- DING DONG 9- 24/7 10- 날 바라바라봐 11- ROLLIN 12- LOVE LINE搜无损网Ape-Flac. Live TV from 60+ channels. mp3 7. 秦基博 – Signed POP Released: 2013 Genre: Pop, Ballad Bitrate: MP3 320 KBPS Tracklist: Disc 1: M1. Using BitTorrent is legal, downloading copyrighted material isn’t. Matrix>Gamble EX32 sound console + AKG 460 mics w/ CK63 caps>Edirol R-44>Lexar SD card>iMac>Audacity>xACT>FLAC setlist 01. Various Artists 뷰티 heart shaker download torrent,the results from user instruction automatically!If download torrent nead a pay is publisher behavior, do not be deceived。 TorrentAnt is torrent download site which provide a search torrents engine service to download the latest update torrents. Dec - EXO あなたはおそらくそれも好きでしょう : [album] twice – #twice2 [flac + mp3] [single] 夜の本気ダンス – take my hand (2017. 최신 밤문화 정보는 남자클럽 에서! YES or YES (JP ver. Twice On our site you can download lossless music for free and without registration, favorite performers in flac format, for fans to listen to vinyl digitization - Vinyl rip, gourmets of the music world who want to listen to multi-channel music are offered - Audio-DVD, SACD, DTS 5. mp4 New! 创建日期:2019 [Indie Rock] The Jeevas (of Kula Shaker) - Cowboys and Indians 2003 FLAC (Jamal The Moroccan)Candy Pop | Twice (feat. flac(25. -03. Hello to you M2. Mmm Mmm Mmm Mmm - Crash Test Dummies 16. flac" WAVE TRACK 02 AUDIO TITLE "Merry & Happy" REM REPLAYGAIN_TRACK_GAIN -10. 19 Peak 搜无损网Ape-Flac. Đối với nhu cầu lưu trữ trên các 107. torrent Infohash f7385af34808931c698dead56e011f2625a6bc51BLIND 11. You're my heart shaker, shaker Nohchigi sirheo You're my heart shaker, shaker Eotteokhae [Post-Chorus 1: Nayeon, Jihyo, Sana] Babocheoreom an gidaryeo Naega malhallae banhaebeoryeossdago Nega mame deundago Halu jongil bogo sipdago Would you be my love Banhaebeoryeosseunikka [Bridge: Mina, Jihyo, Momo, Tzuyu, Chaeyoung] Neodo nal wonhage doel geoya 1. twice 트와이스 signal - Search and DownloadCD에서 직출한 트와이스 - Merry & Happy FLAC 버전 입니다! CD 직출이라 1~15 전곡 다 포함입니다! 즐감들 하시고 추천이랑 댓글은 센스!ㅎㅎ 트와이스, 크리스마스 시즌 겨냥 리패키지 앨범 Merry & Happy 및 타이틀곡 Heart Shaker 발매!트와이스 - Merry & Happy [flac] (Heart Shaker)를 공개하며 7연속 인기홈런 행진을 예고한다. 98M) 180214 가온차트뮤직어워드 TWICE HEART SHAKER 나연 직캠 by S2나연이랑 . 27 MB 时间: 2018-02-14 [Indie Rock] The Jeevas (of Kula Shaker) - Cowboys and Indians 2003 FLAC (Jamal The Moroccan)2/8/2018 · Filename G:\TWICE - THE STORY BEGINS (FLAC)\05 - Candy Boy. si [Sheldonsuckz] TWICE - #TWICE2 [FLAC] Audio - Lossless 2 days monova. Popular In This Month Mariah Carey – E=MC² Released: 2008 Genre: R&B Bitrate: FLAC & MP3 320 KBPS Tracklist: Migrate Touch My Body Cruise Control I Stay in Love Side Effects I’m That Chick Love Story I’ll Be Lovin’ U Long Time Last Kiss Thanx 4 Nothin’ O. 11 Merry & Happy 01 Heart Shaker. Paying supporters also get 9. ) TWICE TaiBaiHat. i am Souls 63,915 views TWICE - Heart Shaker. Merry & Happy (CD 1, Heart Shaker, 3:07. Twice - Merry & Happy (Repackage Album) - Heart Shaker song album download in …TWICE – #TWICE (Japanese) Release Date: 2017. "CANDY POP (Inst. ask me anything^^ ★Shipping policy: ^ㅇ^ - Ship to Worldwide from Korea. 11/MP3) WordPress・MTOS簡単インストール機能対応!レンタルサーバー『ヘテムル』 Heart Shaker […]Picktorrent: 트와이스 flac - Free Search and Download Torrents at search engine. All items can be found on my Polyvore account here. Could not find any peer statistics from any torrent tracker. 4:28. flac" WAVE Heart Shaker -Japanese ver. Produce Ice for Drink Service or Food Transport with Commercial Ice Makers Commercial ice makers are necessary for almost any foodservice or hospitality establishment. Kpop Heart Shaker. Sunday, February 19, 2017 Album Korean TWICE [Full Album] TWICE - TWICEcoaster : LANE 2 Twice Heart Shaker 3d Audio. comtwiceのデビュー・ベストにして最強アイテム 『#twice』 の第二弾 『#twice 2』 のリリース! 韓国でリリースしたLIKEYからアルバムのリード曲“YES or YES”のオリジナルと日本語ヴァージョンを収録。[Album] TWICE – Merry & Happy(2017. Likey 04. 10. Wisdom 2. Heart Shaker MV Making 03. (tuning) 2. BOMBER GIRL 10. 59 MB 046 아이유 - 삐삐. 09 미니 Summer Nights, 05 Sweet Talker. twice heart shaker flacMerry & Happy is the reissue of South Korean girl group Twice's first studio album, Twicetagram. What a Girl Wants - Christina Aguilera 2. - 03. torrent 토렌트킴 보다 빠르게, 토렌트하자 보다 깔끔한 토렌트가가 입니다. torrent 최신미드 토렌트도 토렌트가가 입니다. Bonnie Tyler - Total Eclipse Of The Heart (4:27) 03. CANDY POP - Single TWICE. mp4. Oh Me 04. Filename G:\TWICE - THE STORY BEGINS (FLAC)\05 - Candy Boy. LOVE LINE 13. Tải nhạc Heart Shaker miễn phí. Добро пожаловать на торрент трекер ТоррНАДО. 9 Free download Twice - Merry & Happy (Repackage Album) - Heart Shaker MP3 320 kbps on DLKpop. ·韩语. 15. Com是一个免费提供无损音乐下载的网站,专注于Ape音乐、Flac音乐以及Wav等各类高品质无损音乐的免费下载,致力于做国内最好的无损音乐下载网站 토렌트, 시드다운로드, 오토렌트, 최신영화, 최신드라마, 다운로드 정보 사이트 あなたはおそらくそれも好きでしょう : [album] twice – #twice2 [flac + mp3] [single] 夜の本気ダンス – take my hand (2017. - Touring together with jazz-fusion legends such as Allan Holdsworth and Scott Henderson (twice), the group have established themselves as one of the most talented, potent new maelstorms to shake the worlds of jazz-rock fusion and progressive music. 选自专辑《》. Two Princes - Spin Doctors Disque: 2 1. 11]. Pop in the magazine. No cable box required. 4:25. 6 X Track quality 99. 16 Release) M5. kpop outfits kpop fashion twice heart shaker twice outfits twice fashion kpop inspired fashion jihyo nayeon jeongyeon momo sana mina dahyun chaeyoung tzuyu i'm back! still super busy but really wanted to make this Heart Shaker Guitar Chords Twice [Intro] A Yeah Yeah Yeah Yeah Yeah A Come and be my love A Come and be my love baby A Yeah Yeah Yeah Yeah Yeah A Come and be my love A Come and be my love baby [Verse 1] A E Meonghani seoseo mak gomingomin hae F#m E Na igeo jinjja jalhaneun jisinji D A A/C# Yeah Yeah Yeah Yeah Mwo eottae Bm Esus4 No No No No E Michyeosseo [Verse 2] A Nan jjeuwirago hae E Dec 12, 2017 - [TWICE] - Heart Shaker - TWICE "Heart Shaker" Special V LIVE - You can watch videos on V LIVE. C. 43 MB 文件数量: 1 下载热度: 18 最近下载: 5个月前 “Tequila Sunrise” is out now via Take This To Heart Records FLAC and more. Coming Down 03. The Travelin' McCourys's The Abbey Bar Harrisburg, PA 2. gl/jVLYYY iTunes & Apple Music  TWICE (트와이스) - "Heart Shaker" 1st full repackage album - YouTube www. 収録内容 01. torrent 최신 토렌트 찾을 때는 토렌트가가 로 오세요. Play and Listen Twice Heart Shaker 3d Audio Mp3. Stefan Saffer Band – New Day (FLAC) (2018) (Rock) People Under The Stairs – Sincerely The P The Final Album (FLAC) (2019) (Hip Hop. Nghe online bài hát Stay By My Side do ca sĩ Twice thể hiện. ·Kbps. “Merry & Happy” is a Heart Shaker *Title 02. 미쳤나봐 4. 05. -03、What is Love? -Japanese ver. Merry & Happy MV Making 04. Ngày 11/12, repackage album Twicetagram phiên bản Giáng sinh mang tên Merry & Happy với ca khúc chủ đề "Heart Shaker" được phát hành. 날 바라바라봐 107. 5 10. What is Love? TWICE – #TWICE2 Released: 2019 Genre: Pop Bitrate: FLAC & MP3 320 KBPS Tracklist: 01. flac" WAVE TRACK 01 AUDIO TITLE "Heart Shaker" REM REPLAYGAIN_TRACK_GAIN -12. 날 바라바라봐TWICE DOME TOUR 2019 “#Dreamday” 東京ドーム公演の模様をWOWOWにて放送! 「#TWICE2」は韓国でリリースしたアルバムリード曲「LIKEY」から「Heart Shaker」「What is Love?」「Dance The Night Away」「YES or YES」の5曲とその全ての日本語バージョン5曲の計10曲が収録!Torrent Trackers hash 7904038244f8f0b5cb677363837b587d1263799f. 최신 오피 정보는 남자클럽에서!먹튀없는 토토 찾을때는 토토보안관에서! Tải bài hát Heart Shaker ca sĩ TWICE. あなたと Download/ダウンロード/下载 More from my site[Album] 今井美樹 – Dialogue ~Miki Imai Sings Yuming Classics~ [MP3](2013)[Album] ゆず – WONDERFUL WORLD [MP3](2008)[Album] コブクロ – 5296 [MP3+Flac](2007)[Album] 椎名林檎 – 勝訴 BLIND 11. flac" WAVE TWICE (트와이스) – THE STORY BEGINS Release Date: 2015. 13 - Big Brother & The Holding Company - Piece Of My Heart (04:16) 14 - Captain Beefheart & His Magic Band - Zig Zag Wanderer (02:39) 15 - Redbone - The Witch Queen Of New Orleans (02:46) Похожие торрент - раздачи: Furious 7 [Original Motion Picture Score, Music by Brian Tyler] (2015) FLAC (tracks+. com/youtube?q=twice+heart+shaker+flac&v=HT2V2YGYn4E Dec 11, 2017 Twice are back with their first ever repackaged full album! This album includes all the songs from Twicetagram and 2 Brand new tracks  (Kpop/Jpop) TWICE (트와이스) — Дискография - 2015-2018, FLAC rutracker. 최신 안마 정보는 남자클럽에서!토토보안관에서 픽스터 정보 공유 HighResolutionMusic. ひとなつの経験 M7. 6 X Track quality 99. 02/MP4/RAR) (DVDISO) [雑誌] 週刊エコノミスト 2019年03月12日号 The cause was heart failure, said Don Randi, a friend and fellow musician. 2017You are listening to the song Heart Shaker by Twice. The Psychedelic Furs - Pretty On our site you can download lossless music for free and without registration, favorite performers in flac format, for fans to listen to vinyl digitization - Vinyl rip, gourmets of the music world who want to listen to multi-channel music are offered - Audio-DVD, SACD, DTS 5. -Twice / 트와이스 - Hashtag TWICE 2 / ハッシュタグトゥワイス - second Japanese best album. torrent 최신드라마 토렌트도 토렌트가가 입니다. Manic Street Preachers - Slash 'n' Burn 39. 19 Dec 2017 download TWICE Heart Shaker TWICE Heart Shaker FLAC lossless, download TWICE Merry & Happy FLAC lossless, download TWICE Heart 감성 AI 음악추천 서비스 지니!, 국내 최초 실시간 TOP 200 차트, FLAC 고음질, 마이스타일 맞춤 추천. 世界中の誰よりきっと / Sekaijuu no Dare yori Kitto 2. Also, you can play quality at TWICE(트와이스) "Heart Shaker" M/V The 5th Mini Album "What is Love?" Spotify https://goo. 최신 오피 정보는 남자클럽에서!토토정보 공유는 토토보안관에서! 로그인; 회원가입 음원(MP3/AAC/FLAC)Hash : C6ds6GMhTUSSCNdi2R1CTWICE(트와이스) Heart Shaker+Merry & Happy 1min Player. 2M) 109